HDR10+ Making its way now

A few users are testing it now. maxxcll/maxfall is supported.

2 Likes

What about hdr10+?

Thanks in advance

@sam_nazarko is there any update regarding vero supporting hdr10+ ?

We are still looking in to it. Our 3.14 kernel is EOL, so any work in this area will come via 4.9

Thanks , is there any thread to follow up kernel progress /release ?!

There will be a public one soon.

Sam

Any update on this?

As 4K is out for a while i own a lot of Discs with HDR+ or Dolby Vision Content so now just my Player (Vero4K+) isn’t supporting them.

It would be great if you could give HDR Content more priority.

ATM i always need to use my UHD Player and the Disc, but i would like to have just one Device for this.

I hope this will be implemented soon as the vero4k+ without it is outdated for actual high quality movies.

Thanks.

Dolby Vision support is not going to happen on any current OSMC device, and probably not on any future OSMC device either.

HDR10+ is working in the 4.9 kernel test builds:

Yeah i saw that about the 4.9 Kernel and i also saw it could brick my device.

So is there now a working version or still just the test which could brick my device?

It’s still at the beta testing stage, but I don’t think it will brick your device.

Updated and tested.

It isn’t working for me, the TV always displays me HDR but not HDR10+.

I also tried on my tv directly with Plex and Emby App and directly it is working and displaying HDR10+

So no HDR10+ for me on kodi, nether with plex nor with emby (both are saying direct play, so there is no transcoding active).

To get a better understanding of the problem you are experiencing we need more information from you. The best way to get this information is for you to upload logs that demonstrate your problem. You can learn more about how to submit a useful support request here.

Depending on the used skin you have to set the settings-level to standard or higher, in summary:

  • enable debug logging at settings->system->logging

  • reboot the OSMC device twice(!)

  • reproduce the issue

  • upload the log set (all configs and logs!) either using the Log Uploader method within the My OSMC menu in the GUI or the ssh method invoking command grab-logs -A

  • publish the provided URL from the log set upload, here

Thanks for your understanding. We hope that we can help you get up and running again shortly.

OSMC skin screenshot:

Ok, done:

https://paste.osmc.tv/petakowobu

The TV shows me HDR but not HDR10+ This time i tried native with kodi, no emby or plex addon.

Thanks

To make sure the source is HDR10+ here the Mediainfos:

General
Unique ID : 271922917665238862306781728784899063315 (0xCC9272EFAD02CACA53B1E45F70E33E13)
Complete name : /Volumes/FILME/X-Men Collection/X-Men Dark Phoenix/X-Men Dark Phoenix - 4K.mkv
Format : Matroska
Format version : Version 2
File size : 40.2 GiB
Duration : 1 h 53 min
Overall bit rate : 50.6 Mb/s
Movie name : X-Men: Dark Phoenix
Encoded date : UTC 2020-06-14 18:23:09
Writing application : MakeMKV v1.15.1 win(x64-release)
Writing library : libmakemkv v1.15.1 (1.3.5/1.4.7) win(x64-release)

Video
ID : 1
ID in the original source medium : 4113 (0x1011)
Format : HEVC
Format/Info : High Efficiency Video Coding
Format profile : Main 10@L5.1@High
HDR format : SMPTE ST 2094 App 4, Version 1, HDR10+ Profile A compatible
Codec ID : V_MPEGH/ISO/HEVC
Duration : 1 h 53 min
Bit rate : 49.7 Mb/s
Width : 3 840 pixels
Height : 2 160 pixels
Display aspect ratio : 16:9
Frame rate mode : Constant
Frame rate : 23.976 (24000/1001) FPS
Color space : YUV
Chroma subsampling : 4:2:0 (Type 2)
Bit depth : 10 bits
Bits/(Pixel*Frame) : 0.250
Stream size : 39.6 GiB (98%)
Writing library : ATEME Titan File 3.9.0 (4.9.0.0)
Language : English
Default : No
Forced : No
Color range : Limited
Color primaries : BT.2020
Transfer characteristics : PQ
Matrix coefficients : BT.2020 non-constant
Mastering display color primaries : Display P3
Mastering display luminance : min: 0.0050 cd/m2, max: 1000 cd/m2
Original source medium : Blu-ray

Audio
ID : 2
ID in the original source medium : 4357 (0x1105)
Format : DTS
Format/Info : Digital Theater Systems
Codec ID : A_DTS
Duration : 1 h 53 min
Bit rate mode : Constant
Bit rate : 768 kb/s
Channel(s) : 6 channels
Channel layout : C L R Ls Rs LFE
Sampling rate : 48.0 kHz
Frame rate : 93.750 FPS (512 SPF)
Bit depth : 24 bits
Compression mode : Lossy
Stream size : 626 MiB (2%)
Title : Surround 5.1
Language : German
Default : Yes
Forced : No
Original source medium : Blu-ray

Text #1
ID : 3
ID in the original source medium : 4776 (0x12A8)
Format : PGS
Codec ID : S_HDMV/PGS
Codec ID/Info : Picture based subtitle format used on BDs/HD-DVDs
Duration : 1 h 52 min
Bit rate : 21.6 kb/s
Count of elements : 2054
Stream size : 17.4 MiB (0%)
Language : German
Default : No
Forced : No
Original source medium : Blu-ray

Text #2
ID : 4
ID in the original source medium : 4776 (0x12A8)
Format : PGS
Codec ID : S_HDMV/PGS
Codec ID/Info : Picture based subtitle format used on BDs/HD-DVDs
Duration : 1 h 19 min
Bit rate : 240 b/s
Count of elements : 12
Stream size : 140 KiB (0%)
Language : German
Default : Yes
Forced : No
Original source medium : Blu-ray

Text #3
ID : 5
ID in the original source medium : 4796 (0x12BC)
Format : PGS
Codec ID : S_HDMV/PGS
Codec ID/Info : Picture based subtitle format used on BDs/HD-DVDs
Duration : 1 h 53 min
Bit rate : 68.9 kb/s
Count of elements : 4344
Stream size : 56.0 MiB (0%)
Language : German
Default : No
Forced : No
Original source medium : Blu-ray

Menu
00:00:00.000 : de:Chapter 01
00:03:28.541 : de:Chapter 02
00:07:33.995 : de:Chapter 03
00:11:41.867 : de:Chapter 04
00:15:43.776 : de:Chapter 05
00:18:37.074 : de:Chapter 06
00:25:24.147 : de:Chapter 07
00:31:40.023 : de:Chapter 08
00:34:18.973 : de:Chapter 09
00:40:07.113 : de:Chapter 10
00:44:35.756 : de:Chapter 11
00:49:07.319 : de:Chapter 12
00:55:37.834 : de:Chapter 13
00:58:57.075 : de:Chapter 14
01:02:55.521 : de:Chapter 15
01:10:39.777 : de:Chapter 16
01:13:42.084 : de:Chapter 17
01:19:32.893 : de:Chapter 18
01:22:35.367 : de:Chapter 19
01:25:48.351 : de:Chapter 20
01:30:37.849 : de:Chapter 21
01:32:47.603 : de:Chapter 22
01:37:59.290 : de:Chapter 23
01:45:00.711 : de:Chapter 24

Your Denon receiver does not support HDR10+, or at least it does not advertise support for it via the EDID.

Try connect the Vero directly to the TV.

ok thanks, i will try that

Only the newest Denon AVRs which haven’t been released yet will support HDR10+.

Bought mine last year and has support: https://www.denon.com/en-gb/product/av-receivers/avr-x2700h

Was the whole discussion from 2019/2020 realted to the “old” Vero 4k or is it also valid for the current Vero 4k+?

The product page says “HDR10/HDR10+ ready”. Does it mean that the support was added during / after the discussion or that it’s still missing “officially”, while being supported by the current hardware (to some extent?)?

HDR10+ is supported on 4K and 4K+. Make sure you’re using a recent version of OSMC.