The Hurricane Heist 4K playback problem

hi guys i was playing The Hurricane Heist 4K, the movie playback stutter and choppy and the audio out of sync, the same mkv play fine without any problem on my shield TV and apple TV

Here is the info of the movie and logs, https://paste.osmc.tv/doyeciwaki

General
Unique ID : 234916337114297778105741200135436581081 (0xB0BB3DA58E1662C0570981342F6F38D9)
Complete name : \SERVER\4k\The Hurricane Heist (2018)\The Hurricane Heist (2018).mkv
Format : Matroska
Format version : Version 4 / Version 2
File size : 59.4 GiB
Duration : 1 h 42 min
Overall bit rate mode : Variable
Overall bit rate : 82.6 Mb/s
Encoded date : UTC 2018-06-08 19:23:20
Writing application : mkvmerge v23.0.0 (‘The Bride Said No’) 64-bit
Writing library : libebml v1.3.6 + libmatroska v1.4.9

Video
ID : 1
Format : HEVC
Format/Info : High Efficiency Video Coding
Commercial name : HDR10
Format profile : Main 10@L5.1@High
Codec ID : V_MPEGH/ISO/HEVC
Duration : 1 h 42 min
Bit rate : 78.5 Mb/s
Width : 3 840 pixels
Height : 2 160 pixels
Display aspect ratio : 16:9
Frame rate mode : Constant
Frame rate : 23.976 (24000/1001) FPS
Color space : YUV
Chroma subsampling : 4:2:0 (Type 2)
Bit depth : 10 bits
Bits/(Pixel*Frame) : 0.395
Stream size : 56.4 GiB (95%)
Language : English
Default : Yes
Forced : No
Color range : Limited
Color primaries : BT.2020
Transfer characteristics : PQ
Matrix coefficients : BT.2020 non-constant
Mastering display color primaries : BT.709
Mastering display luminance : min: 0.0050 cd/m2, max: 1000 cd/m2
Maximum Content Light Level : 2083 cd/m2
Maximum Frame-Average Light Level : 825 cd/m2

Audio
ID : 2
Format : TrueHD
Format profile : TrueHD+Atmos / TrueHD
Codec ID : A_TRUEHD
Duration : 1 h 42 min
Bit rate mode : Variable
Bit rate : 4 005 kb/s
Maximum bit rate : 6 849 kb/s
Channel(s) : Object Based / 8 channels
Channel positions : Object Based / Front: L C R, Side: L R, Back: L R, LFE
Sampling rate : / 48.0 kHz
Frame rate : 1 200.000 FPS (40 SPF)
Compression mode : Lossless
Delay relative to video : 1 ms
Stream size : 2.88 GiB (5%)
Language : English
Default : Yes
Forced : No

Text
ID : 3
Format : PGS
Muxing mode : zlib
Codec ID : S_HDMV/PGS
Codec ID/Info : Picture based subtitle format used on BDs/HD-DVDs
Duration : 1 h 42 min
Bit rate : 36.7 kb/s
Count of elements : 2490
Stream size : 26.8 MiB (0%)
Language : English
Default : Yes
Forced : No

Menu
00:00:00.000 : en:Chapter 1
00:05:41.257 : en:Chapter 2
00:13:15.252 : en:Chapter 3
00:20:49.456 : en:Chapter 4
00:25:48.046 : en:Chapter 5
00:30:08.973 : en:Chapter 6
00:35:00.890 : en:Chapter 7
00:40:40.813 : en:Chapter 8
00:45:48.162 : en:Chapter 9
00:52:34.359 : en:Chapter 10
01:00:22.243 : en:Chapter 11
01:06:49.880 : en:Chapter 12
01:11:02.341 : en:Chapter 13
01:17:43.950 : en:Chapter 14
01:25:06.351 : en:Chapter 15
01:32:38.594 : en:Chapter 16

thanks in advanced for any help

First thing to always check: can you play it locally off something like a USB? This is to rule out network problems

Sam

hi, i copy the movie to usb and the movie play fine local, did you have any chance to look at the logs to see what could be the problem, i mean the movie play fine on the shield and apple tv 4k over the network

thanks

It looks like you are using Kodi NFS mounts instead of fstab mounts. I’d suggest that you switch to using fstab as it will perform better than Kodi mounts.

You don’t mention how your network is configured to the 4K. WiFi or Wired? Have you done any iperf3 testing to make sure the network connection to the 4K is good?

well i know my network is good, like i say i play 4k on my shield using kodi or plex, and appletv using mrmc or infuse, so i know my network is fine, i use wired only dont like wi-fi to stream or play back over the network, anyway this just happen with this movie maybe is one of things that happen without explanation

what is fstab i never use it, how do i enable it

thanks in advanced

Nobody said differently but “Overall bit rate : 82.6 Mb/s” with the build-in NFS client can be a border case.
FSTAB info is here:

maybe because the vero 4k is not have a gigabyte network that could be why 82Mb/s can struggle, on other device that have gigabyte network i always use strait nfs or samba and never have problem, anyways that fstab look a little complicate for me, i will give it a try and see if i can get it working,
maybe some times i sound rude but it just a language problem all im trying to do is see what the problem is

thanks for all you help, and please my english is no first language

You don’t need Gigabit for 82Mbps

Sam

This might not be particularly helpful to the OP but a 4K/HDR remux of Hurricane Heist played back flawlessly for me with Atmos over the built-in 100Mbps NIC from an fstab-configured NFS mountpoint.

In fact, I haven’t had any 4K remuxes (even ones from the largest 100GB discs) that appear to have been throttled or have otherwise not played smoothly due to perceived limitations of the built-in NIC on the Vero 4K.

Hi. Those of you using fstab mounts, is autofs as good as fstab in terms of performance? I’m using autofs for my NFS mounts but I don’t mind changing to a static fstab entry if that improves the transfer rate.

Thanks

It doesn’t seem to be that popular, but spending a few £/$ etc on a USB NIC is an easy way to solve this. 324Mbit speeds, and MUCH faster fast-forwarding/buffer-filling during movies.

82Mbs will not cause an issue with the internal adapter.
Something else is at play here. If @rodhull says a remux fixes the problem, then there might be an issue with the rip.

Obviously not appropriate for the forum, but it’s likely you have ‘sourced’ the same version…

Sam

there is no issue with the remux, the file play direct play fine on 2 more different devices without any problem, anyways i already watch the movie on the shield so we can move on

thanks for all the help

If this was a torrent, can you please PM me a magnet so I can look in to this?
Sam

sorry it was no a torrent and i already delete the movie

i was thinking about to get one but the vero 4k only have usb 2.0 so i dont think you can get gigabyte speed over usb 2.0

Correct. But 324Mbit is better than 100Mbit. Noticeably so.

it make sense im gone get one on amazon they are really cheap and i dont use the usb ports anyways

thanks

fstab entries are free :smile:

But yeah a Gbit adapter is only €15, but still fstab provides a better throughput…

I got this one, as recommended by people here:

Amazon.com?encoding=UTF8&psc=1&ref=ya_aw_od_pi

Does it? Any evidence of this?